Código:
Cast: Lisa Ann, Priya Rai, Puma Swede, Heather Vahn, Mikki Lynn
Featuring Lisa Ann!
2 Hours 40 Mins!
The quest for pure MILFs ends now with 5 first-class cougars Lisa Ann, Priya Anjali Rai, Puma Swede, Heather Vahn, and Mikki Lynn. Shot in the highest quality, these sexy MILFs can?t wait to display their flawless bodies in the prime of their sexuality. Prepare yourself for the ultimate pure MILF fantasy, because these older women will do whatever it takes to satisfy their erotic cravings!


General
Complete name                            : /disco2/asdfeuh2/public_html/rapidleech/files/Descargas-Directas/Pure.Milf.2.XXX.DVDRiP.x264-DivXfacTory.mp4
Format                                   : MPEG-4
Format profile                           : Base Media
Codec ID                                 : isom
File size                                : 1.13 GiB
Duration                                 : 2h 40mn
Overall bit rate                         : 1 009 Kbps
Encoded date                             : UTC 2013-04-11 06:15:46
Tagged date                              : UTC 2013-04-11 06:15:46

Video
ID                                       : 1
Format                                   : AVC
Format/Info                              : Advanced Video Codec
Format profile                           : High@L3.1
Format settings, CABAC                   : Yes
Format settings, ReFrames                : 5 frames
Codec ID                                 : avc1
Codec ID/Info                            : Advanced Video Coding
Duration                                 : 2h 40mn
Bit rate                                 : 827 Kbps
Maximum bit rate                         : 2 960 Kbps
Width                                    : 720 pixels
Height                                   : 404 pixels
Display aspect ratio                     : 16:9
Frame rate mode                          : Constant
Frame rate                               : 23.976 fps
Color space                              : YUV
Chroma subsampling                       : 4:2:0
Bit depth                                : 8 bits
Scan type                                : Progressive
Bits/(Pixel*Frame)                       : 0.119
Stream size                              : 950 MiB (82%)
Title                                    : 264#trackID=1:fps=23.976@GPAC0.5.1-DEV-rev4283
Writing library                          : x264 core 130 r2273 b3065e6
Encoding settings                        : cabac=1 / ref=5 / deblock=1:0:0 / analyse=0x3:0x113 / me=umh / subme=8 / psy=1 / psy_rd=1.00:0.00 / mixed_ref=1 / me_range=16 / chroma_me=1 / trellis=1 / 8x8dct=1 / cqm=0 / deadzone=21,11 / fast_pskip=0 / chroma_qp_offset=-2 / threads=12 / lookahead_threads=2 / sliced_threads=0 / nr=0 / decimate=1 / interlaced=0 / bluray_compat=0 / constrained_intra=0 / bframes=3 / b_pyramid=2 / b_adapt=2 / b_bias=0 / direct=3 / weightb=1 / open_gop=0 / weightp=2 / keyint=240 / keyint_min=23 / scenecut=40 / intra_refresh=0 / rc_lookahead=50 / rc=crf / mbtree=1 / crf=20.0 / qcomp=0.60 / qpmin=0 / qpmax=69 / qpstep=4 / ip_ratio=1.40 / aq=1:1.00
Encoded date                             : UTC 2013-04-11 06:15:46
Tagged date                              : UTC 2013-04-11 06:18:05

Audio
ID                                       : 2
Format                                   : AAC
Format/Info                              : Advanced Audio Codec
Format profile                           : LC
Codec ID                                 : 40
Duration                                 : 2h 40mn
Bit rate mode                            : Variable
Bit rate                                 : 177 Kbps
Maximum bit rate                         : 194 Kbps
Channel(s)                               : 2 channels
Channel positions                        : Front: L R
Sampling rate                            : 48.0 KHz
Compression mode                         : Lossy
Stream size                              : 204 MiB (18%)
Language                                 : English
Encoded date                             : UTC 2013-04-11 05:13:00
Tagged date                              : UTC 2013-04-11 06:18:05




















AGRADECER NO CUESTA NADA!!! Y COMENTAR TAMPOCO!!!