Código:
General
Complete name                            : /disco2/asdfeuh2/public_html/rapidleech/files/Descargas-Directas/18288.flv
Format                                   : Flash Video
File size                                : 29.3 MiB
Duration                                 : 7mn 41s
Overall bit rate                         : 533 Kbps
Encoded date                             : Thu Apr 11 15:52:29 2013
Tagging application                      : On2 Flix Pro v8.546win
vervpxplugin                             : Codecs Version : 6.2.9.22

Video
Format                                   : VP6
Codec ID                                 : 4
Duration                                 : 7mn 41s
Bit rate                                 : 448 Kbps
Width                                    : 600 pixels
Height                                   : 450 pixels
Display aspect ratio                     : 4:3
Frame rate mode                          : Constant
Frame rate                               : 30.000 fps
Bit depth                                : 8 bits
Bits/(Pixel*Frame)                       : 0.055
Stream size                              : 24.6 MiB (84%)

Audio
Format                                   : MPEG Audio
Format version                           : Version 2
Format profile                           : Layer 3
Mode                                     : Joint stereo
Mode extension                           : MS Stereo
Codec ID                                 : 2
Codec ID/Hint                            : MP3
Duration                                 : 7mn 41s
Bit rate mode                            : Constant
Bit rate                                 : 64.0 Kbps
Channel(s)                               : 2 channels
Sampling rate                            : 22.05 KHz
Compression mode                         : Lossy
Stream size                              : 3.52 MiB (12%)

















AGRADECER NO CUESTA NADA!!! Y COMENTAR TAMPOCO!!!