Resultados 1 al 3 de 3

Tema: Alyssa Hall, Colegiala De Infarto, Follando con su uniforme escolar!!!

  1. #1
    Fecha de ingreso
    15 dic, 08
    Mensajes
    57

    Talking Alyssa Hall, Colegiala De Infarto, Follando con su uniforme escolar!!!

    File size : 347 MiB
    Duration : 33mn 45s

    Codec ID : WMV3
    Codec ID/Info : Windows Media Video 9
    Codec ID/Hint : WMV3
    Description of the codec : Windows Media Video 9 - Professional
    Duration : 33mn 43s
    Bit rate mode : Constant
    Bit rate : 1 400 Kbps
    Width : 888 pixels
    Height : 480 pixels
    Display aspect ratio : 1.850
    Frame rate : 29.970 fps
    Resolution : 8 bits
    Scan type : Progressive
    Bits/(Pixel*Frame) : 0.110
    Stream size : 338 MiB (97%)
    Language : English (US)

    Audio
    ID : 1
    Format : WMA
    Format version : Version 2
    Codec ID : 161
    Codec ID/Info : Windows Media Audio
    Description of the codec : Windows Media Audio 9.1 - 32 kbps, 44 kHz, mono (A/V) 1-pass CBR
    Duration : 33mn 45s
    Bit rate mode : Constant
    Bit rate : 32.0 Kbps
    Channel(s) : 1 channel
    Sampling rate : 44.1 KHz
    Resolution : 16 bits
    Stream size : 7.74 MiB (2%)
    Language : English (US)





    http://www.megaupload.com/?d=41QADW19
    http://www.megaupload.com/?d=NREW6KR3
    http://www.megaupload.com/?d=1M3T5RPH
    http://www.megaupload.com/?d=2DWLAD2J
    http://www.megaupload.com/?d=FC8CTPV6

  2. #2
    Fecha de ingreso
    30 ene, 08
    Mensajes
    59

    Predeterminado

    Muy Buen aporte carnal, excelente!!

  3. #3
    Fecha de ingreso
    15 dic, 08
    Mensajes
    57

    Thumbs up

    ojala y te haya gustado el video, la colegiala esta de "no mms" jeje


    tengo otros dos de la misma serie (Schoolgirl POV)

    ahorita mismo los posteo


Permisos de publicación

  • No puedes crear nuevos temas
  • No puedes responder temas
  • No puedes subir archivos adjuntos
  • No puedes editar tus mensajes
  •  
Dale LIKE!
Síguenos